<?xml version="1.0" standalone="no"?> 
<!DOCTYPE svg PUBLIC "-//W3C//DTD SVG 1.1//EN" "http://www.w3.org/Graphics/SVG/1.1/DTD/svg11.dtd" >
<svg xmlns="http://www.w3.org/2000/svg">
<defs>
  <font id="icons" horiz-adv-x="2000">
    <font-face font-family="icons"
      units-per-em="1187" ascent="1047"
      descent="140" />
    <missing-glyph horiz-adv-x="0" />
    <glyph glyph-name="arrow-down"
      unicode="&#xF101;"
      horiz-adv-x="1187" d=" M623.16313 70.47884L0 647.3133599999999L65.34435 717.82116L688.50748 141.0815999999999L623.16313 70.47884z M1118.463807 716.393199L587.726432 173.853483L656.438301 106.6360469999999L1187.17805 649.175763L1118.463807 716.393199z" />
    <glyph glyph-name="arrow-left-bold"
      unicode="&#xF102;"
      horiz-adv-x="1187" d=" M235.03787 335.83269L130.67683 432.4426199999999L699.43975 1047L803.87201 950.41381L235.03787 335.83269z M719.29826 -140L184.04435 383.03968L283.39625 484.72997L818.73325 -38.3453200000001L719.29826 -140z" />
    <glyph glyph-name="arrow-left"
      unicode="&#xF103;"
      horiz-adv-x="1187" d=" M791.8358300000001 997.57332L738.51579 1046.92878L157.59799 419.37375L185.75363 393.3072299999999L731.59558 -139.9169099999999L782.3398300000001 -87.98566L259.63251 422.6379999999999L791.8358300000001 997.57332z" />
    <glyph glyph-name="arrow-right-bold"
      unicode="&#xF104;"
      horiz-adv-x="1187" d=" M487.52464 -140L383.17547 -43.35446L951.89091 571.1079599999999L1056.3113 474.53364L487.52464 -140z M903.49692 422.29377L368.27862 945.28597L467.63052 1047L1002.92004 524.0078L903.49692 422.29377z" />
    <glyph glyph-name="arrow-right"
      unicode="&#xF105;"
      horiz-adv-x="1187" d=" M1002.04166 512.82626L1002.14849 512.9449599999999L455.4044200000001 1047.04748L404.6720400000001 995.11623L927.50993 484.362L395.1760400000001 -90.71576L448.49608 -140.07122L1029.41388 487.4838099999999L1002.04166 512.82626z" />
    <glyph glyph-name="calendar"
      unicode="&#xF106;"
      horiz-adv-x="1187" d=" M819.17244 912.53664V981.05028H735.38211V912.53664H451.61789V981.05028H367.82756V912.53664H0V-74.0502800000002H1187V912.53664zM367.82756 830.32502V761.81138H451.61789V830.32502H735.66699V775.50936H819.4573200000001V830.32502H1103.15032V693.274H83.79033V830.32502zM83.79033 8.1613400000001V611.0861199999999H1103.20967V8.1613400000001z M411.9720900000001 254.81994H272.32154V117.7807899999999H411.9720900000001z M663.28373 254.81994H523.64505V117.7807899999999H663.28373z M914.6665900000002 254.81994H775.02791V117.7807899999999H914.6665900000002z M663.28373 501.46667H523.64505V364.475H663.28373z M914.6665900000002 501.46667H775.02791V364.475H914.6665900000002z M411.9720900000001 501.46667H272.32154V364.475H411.9720900000001z" />
    <glyph glyph-name="chatshow-off"
      unicode="&#xF107;"
      horiz-adv-x="1187" d=" M1127.0565 1047.0827985067142L1187.0084785714287 987.1302635714286L847.8045757142858 647.9043164285714V411.10036C847.8045757142858 364.2749057142857 809.8477071428572 326.3146457142856 763.0247964285714 326.3146457142856H526.2369492857143L441.45717 241.5289314285714H508.6854585714286V114.3486642857142H861.9315714285715L974.9763642857145 29.56295V114.3486642857142H1102.1464571428571V538.2789314285715H932.5835071428572V623.0646457142857H1102.1464571428571C1148.9651285714285 623.0646457142857 1186.923692857143 585.1052335714285 1186.923692857143 538.2789314285715V114.3486642857142C1186.923692857143 67.5215142857142 1148.9651285714285 29.56295 1102.1464571428571 29.56295H1059.7536V-140.0084785714287L833.6741885714287 29.56295H508.6854585714286C461.8625478571429 29.56295 423.9056792857143 67.5215142857142 423.9056792857143 114.3486642857142V223.975745L59.8655819285714 -140.0932642857142L-0.0827985067143 -80.1328071428572L1127.0565 1047.0827985067142z M763.0247964285714 962.2075028571428C790.139267857143 962.2075028571428 814.2803042857144 949.4786235714286 829.7994814285715 929.6692892857142L692.7764407142857 792.6360742857142H169.5663414285714V707.85036H607.9966614285714L480.8274164285715 580.6717885714286H169.5663414285714V495.8860742857142H396.0467892857143L127.1760278571429 226.9966599999999V326.3146457142856H84.7865621428572C37.9636514285714 326.3146457142856 0.0063815663571 364.2749057142857 0.0063815663571 411.10036V877.4217885714286C0.0063815663571 924.2480907142856 37.9635666428571 962.2075028571428 84.7865621428572 962.2075028571428H763.0247964285714z" />
    <glyph glyph-name="chatshow-on"
      unicode="&#xF108;"
      horiz-adv-x="1278.3076923076924" d=" M0 955.6923076923078C0 1006.1201765384616 40.8769929230769 1047 91.3013007692308 1047H821.711706923077C872.1363799999999 1047 913.0130076923078 1006.1201765384616 913.0130076923078 955.6923076923078V453.5C913.0130076923078 403.0725876923077 872.1363799999999 362.1923076923078 821.711706923077 362.1923076923078H365.2052030769231L136.9524076923077 179.5769230769231V362.1923076923078H91.3013920769231C40.8769929230769 362.1923076923078 0 403.0725876923077 0 453.5V955.6923076923078zM730.4104061538461 864.3846153846154H182.6026015384615V773.0769230769231H730.4104061538461V864.3846153846154zM182.6026015384615 636.1153846153846H639.1091053846154V544.8076923076924H182.6026015384615V636.1153846153846z M456.5065038461539 133.9230769230769V270.8846153846154H547.8078046153846V133.9230769230769H928.234L1049.9654153846154 42.6153846153846V133.9230769230769H1186.917823076923V590.4615384615385H1004.3115692307692V681.7692307692307H1186.917823076923C1237.3379307692308 681.7692307692307 1278.2163846153846 640.8889507692307 1278.2163846153846 590.4615384615385V133.9230769230769C1278.2163846153846 83.4938384615384 1237.3379307692308 42.6153846153846 1186.917823076923 42.6153846153846H1141.2639769230768V-140L897.7965807692307 42.6153846153846H547.8078046153846C497.3840446153846 42.6153846153846 456.5065038461539 83.4938384615384 456.5065038461539 133.9230769230769z" />
    <glyph glyph-name="circle-fill"
      unicode="&#xF109;"
      horiz-adv-x="1187" d=" M0 453.5C0 125.719000975424 265.719000975424 -140 593.5 -140C921.280999024576 -140 1187 125.719000975424 1187 453.5C1187 781.280999024576 921.280999024576 1047 593.5 1047C265.719000975424 1047 0 781.280999024576 0 453.5z" />
    <glyph glyph-name="circle"
      unicode="&#xF10A;"
      horiz-adv-x="1187" d=" M593.5 948.0833729C320.348747 948.0833729 98.9166271 726.651253 98.9166271 453.5C98.9166271 180.3487469999999 320.348747 -41.0837290000002 593.5 -41.0837290000002C866.6512530000001 -41.0837290000002 1088.0837290000002 180.3487469999999 1088.0837290000002 453.5C1088.0837290000002 726.651253 866.6512530000001 948.0833729 593.5 948.0833729zM0 453.5C0 781.2805539999999 265.719446 1047 593.5 1047C921.280554 1047 1187 781.2805539999999 1187 453.5C1187 125.719446 921.280554 -140 593.5 -140C265.719446 -140 0 125.719446 0 453.5z" />
    <glyph glyph-name="clock"
      unicode="&#xF10B;"
      horiz-adv-x="1187" d=" M592.9065 1047C265.2945 1047 0 781.112 0 453.5C0 125.888 265.2945 -140 592.9065 -140C921.112 -140 1187 125.888 1187 453.5C1187 781.112 921.112 1047 592.9065 1047zM593.5 -21.3C331.173 -21.3 118.7 191.173 118.7 453.5C118.7 715.827 331.173 928.3 593.5 928.3C855.827 928.3 1068.3 715.827 1068.3 453.5C1068.3 191.173 855.827 -21.3 593.5 -21.3z M623.1750000000001 750.25H534.15V394.15L845.7375000000001 207.1975L890.25 280.198L623.1750000000001 438.6625V750.25z" />
    <glyph glyph-name="close"
      unicode="&#xF10C;"
      horiz-adv-x="1187" d=" M1186.98813 955.69596L1095.6840900000002 1046.98813L593.5 544.80404L91.30404 1046.98813L0 955.69596L502.19596 453.5L0 -48.69596L91.30404 -140L593.5 362.19596L1095.6840900000002 -139.9881299999999L1186.98813 -48.6840900000002L684.80404 453.5L1186.98813 955.69596z" />
    <glyph glyph-name="comment"
      unicode="&#xF10D;"
      horiz-adv-x="1187" d=" M461.60056 -140V123.81075H197.83729C88.72825 123.81075 0 212.539 0 321.6480399999999V849.1627100000001C0 958.27175 88.72825 1047 197.83729 1047H989.16271C1098.2242700000002 1047 1187 958.27175 1187 849.1627100000001V321.6480399999999C1187 212.58648 1098.2242700000002 123.81075 989.16271 123.81075H758.493zM197.83729 948.08729A99.05515000000003 99.05515000000003 0 0 1 98.91271 849.16271V321.6480399999999A99.03141000000002 99.03141000000002 0 0 1 197.83729 222.7234599999999H560.51327V80.2834599999999L720.6276999999999 222.7234599999999H989.16271A98.99580000000002 98.99580000000002 0 0 1 1088.0872900000002 321.6480399999999V849.1627100000001A99.03141000000002 99.03141000000002 0 0 1 989.16271 948.08729z" />
    <glyph glyph-name="community"
      unicode="&#xF10E;"
      horiz-adv-x="1187" d=" M1187 57.833729H1038.6867240000001V-140L774.8261200000001 57.833729H395.6662710000001V255.666271H494.583729V156.75H807.840151L939.770453 57.833729V156.75H1088.207177V552.416271H989.166271V651.333729H1187V57.833729zM890.25 354.583729H412.1738800000001L148.436724 156.75V354.583729H0V1047H890.25V354.583729zM692.416271 651.085646H197.833729V555.917921H692.416271V651.085646zM692.416271 845.168455H197.833729V750.001917H692.416271V845.168455z" />
    <glyph glyph-name="display"
      unicode="&#xF10F;"
      horiz-adv-x="1187" d=" M594.269176 632.261013C594.023467 632.261013 593.778945 632.233712 593.505935 632.233712C593.260226 632.233712 593.0145170000001 632.261013 592.742694 632.261013C496.052048 632.261013 417.6863080000001 552.608565 417.6863080000001 454.3308999999999C417.6863080000001 356.053235 496.052048 276.3996 592.742694 276.3996C592.987216 276.3996 593.232925 276.4280879999999 593.505935 276.4280879999999C593.751644 276.4280879999999 593.996166 276.3996 594.269176 276.3996C690.9586350000001 276.3996 769.325562 356.053235 769.325562 454.3308999999999C769.325562 552.608565 690.931334 632.261013 594.269176 632.261013z M593.5 890.316C265.719446 890.316 0 527.664947 0 453.000273C0 378.335599 265.719446 15.684546 593.5 15.684546C921.280554 15.684546 1187 378.335599 1187 453.000273C1187 527.664947 921.280554 890.316 593.5 890.316zM594.263241 139.072009C594.017532 139.072009 593.77301 139.072009 593.5 139.072009C593.2542910000001 139.072009 593.008582 139.072009 592.736759 139.072009C421.443163 139.072009 282.5712850000001 280.224114 282.5712850000001 454.3308999999999C282.5712850000001 628.4364989999999 421.443163 769.589791 592.736759 769.589791C592.982468 769.589791 593.22699 769.589791 593.5 769.589791C593.745709 769.589791 593.990231 769.589791 594.263241 769.589791C765.5568370000001 769.589791 904.4287150000002 628.4364989999999 904.4287150000002 454.3308999999999C904.4287150000002 280.224114 765.5568370000001 139.072009 594.263241 139.072009z" />
    <glyph glyph-name="edit"
      unicode="&#xF110;"
      horiz-adv-x="1187" d=" M1046.37611 1047L480.735 481.35889L445.125 305.125L621.3588900000001 340.56882L1187 906.37611z M890.25 305.125V8.375H148.375V750.25H445.125L593.5 898.625H0V-140H1038.625V453.5z" />
    <glyph glyph-name="exclude"
      unicode="&#xF111;"
      horiz-adv-x="1187" d=" M0 453.5C0 781.57344625 265.4265537500001 1047 593.5 1047C921.5719625 1047 1187 781.57344625 1187 453.5C1187 125.4280375 921.5719625 -140 593.5 -140C265.4265537500001 -140 0 125.4280375 0 453.5zM540.1398987499999 398.63240875C531.677330625 374.784095 527.445675625 342.501404375 527.445675625 301.7865625000001H644.0394925C644.6663768750001 326.505095625 647.644263125 346.427406875 652.972409375 361.5505287499999C658.3005556249999 376.9652075 667.390008125 391.7975143750001 680.240025 406.04819125L719.2611662500001 447.05607375C759.06424375 490.0996612499999 778.96875 534.014951875 778.96875 578.803429375C778.96875 632.89872875 762.82555 674.923721875 730.544343125 704.8798925C698.262394375 735.1268781250001 652.972409375 750.25 594.6751300000001 750.25C537.63236125 750.25 492.34237625 734.690655625 458.805916875 703.571225C425.583270625 672.451794375 408.658134375 628.68191125 408.03125 572.260091875H541.079854375C541.70673875 594.9451456249999 547.034885 612.9764175 557.064293125 626.354649375C567.09370125 639.73288125 579.630646875 646.422368125 594.6751300000001 646.422368125C628.5254025 646.422368125 645.4497968750001 622.1378318750001 645.4497968750001 573.568759375C645.4497968750001 557.8632656249999 641.5319549999999 542.30392125 633.6970131249999 526.889984375C625.8613293750001 511.4753056249999 610.1899618750001 491.69914375 586.682910625 467.560015C564.429628125 445.7474062500001 548.915538125 422.7715375 540.1398987499999 398.63240875zM535.437895 216.7157562499999C521.9609937500001 204.20774375 515.222543125 188.0719625000001 515.222543125 168.293575C515.222543125 149.0938500000001 521.804458125 133.099025 534.968288125 120.30168125C548.132118125 107.5043375 565.683396875 101.109375 587.623608125 101.109375C609.87614875 101.109375 627.5847050000001 107.5043375 640.748535 120.30168125C653.912365 133.099025 660.49428 149.0938500000001 660.49428 168.293575C660.49428 187.7752125000001 653.7558293750001 203.7700375000001 640.27818625 216.27805C626.801285 229.07539375 609.2492643749999 235.477775 587.623608125 235.477775C566.624094375 235.477775 549.228609375 229.2237687500001 535.437895 216.7157562499999z" />
    <glyph glyph-name="external-link"
      unicode="&#xF112;"
      horiz-adv-x="1187" d=" M890.265431 1047V972.8125H1060.4017020000001L604.39666 516.806271L656.821702 464.381229L1112.827931 920.386271V750.25H1187.01187V1047H890.265431z M964.4375 -65.8125H74.1875V824.4375H741.875V898.625H0V-140H1038.625V601.875H964.4375V-65.8125z" />
    <glyph glyph-name="facebook"
      unicode="&#xF113;"
      horiz-adv-x="1187" d=" M770.22056 849.28141H890.25V1047H710.1939699999999S596.83547 1050.09807 525.02197 951.63642C525.02197 951.63642 476.1175699999999 902.79137 475.38163 760.9092599999999V612.8191400000001H296.75V402.72014H474.57447V-140H679.8186400000001V402.70827H856.90717L881.35937 612.80727H680.56645V760.933C680.56645 777.95458 687.97333 850.83638 770.22056 849.28141z" />
    <glyph glyph-name="ff-10s"
      unicode="&#xF114;"
      horiz-adv-x="1187" d=" M513.1697750000001 268.03125H468.0341V580.683340625L390.4413937500001 545.94504375V588.54350625L506.07003125 639.0058437499999H513.1697750000001V268.03125z M807.46416875 425.4979281250001C807.46416875 371.066559375 799.5186874999999 330.3264937500001 783.6277249999999 303.27773125C767.7367624999999 276.3996 742.80234375 262.960534375 708.82446875 262.960534375C675.859253125 262.960534375 651.2623875 275.8914156250001 635.033871875 301.7568875C618.80535625 327.61865 610.3554 366.5003187499999 609.676584375 418.3981843749999V481.791403125C609.676584375 535.7182968750001 617.622065625 575.950178125 633.513028125 602.49075625C649.574621875 629.031334375 674.509040625 642.29976875 708.316284375 642.29976875C741.6190531249999 642.29976875 766.2159187499999 629.7064406249999 782.1068812499999 604.519784375C798.164765625 579.333128125 806.61843125 541.21188125 807.46416875 490.1597531250001V425.4979281250001zM762.58073125 489.65156875C762.58073125 528.700159375 758.2704375 557.440396875 749.6498499999999 575.8648625000001C741.025553125 594.459959375 727.248934375 603.7593625 708.316284375 603.7593625C689.8918187500001 603.7593625 676.3674375 594.630590625 667.74685 576.373046875C659.1225531250001 558.286134375 654.6453375 530.89981875 654.307784375 494.217809375V418.1459468750001C654.307784375 379.2642781250001 658.7850000000001 350.0195656250001 667.74685 330.4081C676.7049906249999 310.970975 690.39629375 301.2487031249999 708.82446875 301.2487031249999C727.0820124999999 301.2487031249999 740.521078125 310.4627906249999 749.1416656250001 328.88725625C757.762253125 347.31543125 762.243178125 375.4621687500001 762.58073125 413.3274687500001V489.65156875z M593.5 -65.8125C306.6914959375 -65.8125 74.1875 166.6911250000001 74.1875 453.5C74.1875 740.3085040625 306.6914959375 972.8125 593.5 972.8125L593.503709375 1047L715.913084375 944.9921875L593.503709375 842.984375L593.5 917.171875C337.42107125 917.171875 129.828125 709.57892875 129.828125 453.5C129.828125 197.4195874999999 337.42107125 -10.171875 593.5 -10.171875C849.5804125000001 -10.171875 1057.171875 197.4195874999999 1057.171875 453.5H1112.8125C1112.8125 166.6911250000001 880.308875 -65.8125 593.5 -65.8125z" />
    <glyph glyph-name="ff-30s"
      unicode="&#xF115;"
      horiz-adv-x="1187" d=" M436.845675 475.45208125H465.4968875C483.9250625 475.45208125 498.12455 481.116296875 508.099059375 492.44101875C518.069859375 503.765740625 523.0589687500001 519.233834375 523.0589687500001 538.8453C523.0589687500001 582.11886875 506.32226875 603.7593625 472.852578125 603.7593625C456.7909843750001 603.7593625 444.19765625 597.928225 435.068884375 586.262240625C425.9401125 574.59625625 421.37758125 559.29879375 421.37758125 540.36614375H376.74638125C376.74638125 569.948409375 385.70823125 594.2930375000001 403.628221875 613.3926093749999C421.715134375 632.666521875 444.79115625 642.29976875 472.852578125 642.29976875C501.926659375 642.29976875 525.00268125 633.17470625 542.076934375 614.9171624999999C559.1511875 596.826540625 567.686459375 571.1317 567.686459375 537.8289312500001C567.686459375 520.7583875 563.205534375 504.782109375 554.24739375 489.90380625C545.456175 475.19984375 533.960821875 464.3795968750001 519.761334375 457.446775C554.584946875 444.6012093750001 571.9967531249999 415.779365625 571.9967531249999 370.9812437500001C571.9967531249999 338.0160281250001 562.782665625 311.731396875 544.3582 292.1199312500001C526.10065625 272.6790968750001 502.18260625 262.960534375 472.59663125 262.960534375C443.35191875 262.960534375 419.68610625 272.174621875 401.59919375 290.5990875C383.679203125 309.194184375 374.7210625 334.1286031250001 374.7210625 365.40234375H419.600790625C419.600790625 345.7945874999999 424.3339531250001 330.1558625 433.800278125 318.4935875C443.266603125 306.9982343750001 456.20119375 301.2487031249999 472.59663125 301.2487031249999C489.33333125 301.2487031249999 502.601765625 306.91291875 512.409353125 318.2376406250001C522.380153125 329.5660718749999 527.3692625 346.8072468750001 527.3692625 369.964875C527.3692625 414.762996875 506.1516375 437.1639125000001 463.72380625 437.1639125000001H436.845675V475.45208125z M807.46416875 425.4979281250001C807.46416875 371.066559375 799.5186874999999 330.3264937500001 783.6277249999999 303.27773125C767.7367624999999 276.3996 742.80234375 262.960534375 708.82446875 262.960534375C675.859253125 262.960534375 651.2623875 275.8914156250001 635.033871875 301.7568875C618.80535625 327.61865 610.3554 366.5003187499999 609.676584375 418.3981843749999V481.791403125C609.676584375 535.7182968750001 617.622065625 575.950178125 633.513028125 602.49075625C649.574621875 629.031334375 674.509040625 642.29976875 708.316284375 642.29976875C741.6190531249999 642.29976875 766.2159187499999 629.7064406249999 782.1068812499999 604.519784375C798.164765625 579.333128125 806.61843125 541.21188125 807.46416875 490.1597531250001V425.4979281250001zM762.58073125 489.65156875C762.58073125 528.700159375 758.2704375 557.440396875 749.6498499999999 575.8648625000001C741.025553125 594.459959375 727.248934375 603.7593625 708.316284375 603.7593625C689.8918187500001 603.7593625 676.3674375 594.630590625 667.74685 576.373046875C659.1225531250001 558.286134375 654.6453375 530.89981875 654.307784375 494.217809375V418.1459468750001C654.307784375 379.2642781250001 658.7850000000001 350.0195656250001 667.74685 330.4081C676.7049906249999 310.970975 690.39629375 301.2487031249999 708.82446875 301.2487031249999C727.0820124999999 301.2487031249999 740.521078125 310.4627906249999 749.1416656250001 328.88725625C757.762253125 347.31543125 762.243178125 375.4621687500001 762.58073125 413.3274687500001V489.65156875z M593.5 -65.8125C306.6914959375 -65.8125 74.1875 166.6911250000001 74.1875 453.5C74.1875 740.3085040625 306.6914959375 972.8125 593.5 972.8125L593.503709375 1047L715.913084375 944.9921875L593.503709375 842.984375L593.5 917.171875C337.42107125 917.171875 129.828125 709.57892875 129.828125 453.5C129.828125 197.4195874999999 337.42107125 -10.171875 593.5 -10.171875C849.5804125000001 -10.171875 1057.171875 197.4195874999999 1057.171875 453.5H1112.8125C1112.8125 166.6911250000001 880.308875 -65.8125 593.5 -65.8125z" />
    <glyph glyph-name="from-the-beginning"
      unicode="&#xF116;"
      horiz-adv-x="1187" d=" M447.443359375 258.7578125L812.5831062499999 453.1290624999999L447.443359375 648.2421875V258.7578125z M593.5 -65.8125C880.308875 -65.8125 1112.8125 166.6911250000001 1112.8125 453.5C1112.8125 740.3085040625 880.308875 972.8125 593.5 972.8125L593.5 1047L471.090625 944.9921875L593.5 842.984375L593.5 917.171875C849.5804125000001 917.171875 1057.171875 709.57892875 1057.171875 453.5C1057.171875 197.4195874999999 849.5804125000001 -10.171875 593.5 -10.171875C337.42107125 -10.171875 129.828125 197.4195874999999 129.828125 453.5C129.828125 581.54020625 181.7263615625 697.457433125 265.6346496875001 781.36572125L226.2907928125 820.709578125C132.31340625 726.7321915625 74.1875 596.9044375 74.1875 453.5C74.1875 166.6911250000001 306.6914959375 -65.8125 593.5 -65.8125z" />
    <glyph glyph-name="game"
      unicode="&#xF117;"
      horiz-adv-x="1187" d=" M388.3519770000001 1010.565035C381.1112770000001 897.226714 387.480719 766.7493 406.684005 637.691538C432.807501 646.490769 459.160088 654.785525 485.373796 662.3941950000001C473.732887 777.107062 522.633726 882.46993 630.975964 975.8716364C654.6708580000001 996.2660769 681.390228 1016.1562798 710.903796 1035.35915035C672.956593 1042.96695384 633.681137 1047 593.4881300000001 1047C521.396872 1047 452.284984 1034.1217622 388.3519770000001 1010.565035z M565.64111 683.890765C693.003836 714.964051 815.4155850000001 730.683492 929.8993610000002 730.683492C973.804117 730.683492 1016.747403 728.299996 1057.6276830000002 723.62559C1081.32139 720.9216039999999 1104.649501 717.34636 1127.426844 712.992444C1063.538943 844.204611 952.72181 948.2845694 816.8364240000001 1003.5098631C765.002508 975.3244294 720.3641860000001 945.3514924 684.249711 914.18657C602.122368 843.471045 562.3412500000001 766.1095069999999 565.64111 683.890765z M102.5046907 786.961536C130.644781 772.2498579999999 155.759327 751.763425 177.391215 725.686222C208.280516 688.426292 232.983173 638.7467809999999 250.994711 577.746851C264.28555 583.566712 277.759187 589.2500679999999 291.279117 594.7494389999999C303.607299 599.790628 316.1182790000001 604.740418 328.676739 609.598809C309.473453 732.423634 301.452894 858.77741 305.394921 972.4815644C224.091356 927.200838 154.567579 863.498109 102.5046907 786.961536z M60.404056 714.542666C21.7235244 635.7614759999999 0 547.172105 0 453.4952519999999C0 449.09623 0.0916602587 444.696021 0.18332028 440.342105C50.2756224 475.493923 109.9922867 510.370357 176.170979 543.000987C151.972797 631.269868 113.8877833 687.686791 60.404056 714.542666z M1089.425039 127.421604C870.219375 238.5141210000001 576.4475580000001 388.699296 503.4411230000001 582.789227C475.850495 574.677269 448.078256 565.832932 420.533921 556.345241C446.977907 418.351743 486.528747 292.0430730000001 538.1335720000001 180.6300660000001C595.146369 57.531044 665.450005 -43.3865089999999 747.2568580000001 -119.8316830000001C889.4214740000001 -81.793081 1010.551263 7.6675479999999 1089.425039 127.421604z M1162.742468 621.750128C1126.445195 631.145233 1088.1312090000001 638.203135 1048.3963840000001 642.7861419999999C1010.54058 647.140058 970.66925 649.339569 929.834076 649.339569C821.078762 649.339569 704.304076 634.169709 582.488201 604.196772C610.489531 536.230339 678.2731660000001 466.018102 788.768622 390.307681C895.644915 317.0709679999999 1025.023167 251.395445 1129.469671 198.462367C1166.362818 275.686213 1186.986943 362.167472 1186.986943 453.507122C1186.986943 511.940758 1178.508202 568.402787 1162.742468 621.750128z M649.863508 -137.292453C576.123507 -57.8690960000001 512.2818990000001 40.5747489999999 459.805816 156.2953789999999C409.209941 267.754679 370.024697 392.64251 343.1688220000001 527.749224C335.973228 524.907546 328.9153260000001 522.067055 322.086515 519.270483C304.6708510000001 512.167475 287.1186820000001 504.651391 269.6567250000001 496.906216C290.372249 373.530623 274.1483330000001 260.284888 259.8034380000001 159.870623C250.270641 93.0959379999999 241.196026 29.712512 245.138053 -26.9786080000001C342.9397310000001 -98.062103 463.3347670000001 -139.996439 593.492878 -139.996439C612.5121790000001 -139.996439 631.3023890000001 -139.0800750000001 649.863508 -137.292453z M179.18952 171.1340660000001C192.342667 263.160989 205.953996 358.0746959999999 192.70945 460.414275C120.206303 423.6576330000001 56.6397229 384.382177 9.48049778 347.213646C30.5624012 230.713157 85.6043034 125.991269 164.065953 43.817633C166.861338 84.9270039999999 172.91029 127.228123 179.18952 171.1340660000001z" />
    <glyph glyph-name="heart-fill"
      unicode="&#xF118;"
      horiz-adv-x="1187" d=" M593.5 753.4549C440.17521 1002.77238 0 928.8935 0 614.932C0 397.9365300000001 276.96271 180.92919 593.5 -114.56259C910.02542 180.92919 1187 397.9365300000001 1187 614.932C1187 928.8935 746.82479 998.15495 593.5 753.4549z" />
    <glyph glyph-name="heart"
      unicode="&#xF119;"
      horiz-adv-x="1187" d=" M593.5 -114.57446L459.20282 8.9566299999999C354.5806400000001 104.5932199999999 255.72728 194.92392 178.05 279.5095399999999C54.93436 413.3437899999999 0 516.7671 0 614.80143C0 755.34223 93.8917 865.389 239.25172 895.27766C381.0270000000001 924.58469 523.3720400000001 867.37129 593.5 753.27685C663.96032 865.63827 806.29349 921.98516 947.79576 893.53277C1093.1083 864.35631 1187 754.93865 1187 614.80143C1187 516.8027099999999 1132.1012500000002 413.42688 1008.95 279.5095399999999C931.2015 194.92392 832.41936 104.5932199999999 727.76157 8.9566299999999L593.5 -114.57446zM311.97921 817.81404C293.278025 817.836593 274.6219460000001 815.9670679999999 256.29704 812.23514C148.90915 790.16881 84.78741 716.3967600000001 84.78741 614.80143C84.78741 540.64954 134.26157 452.3486099999999 240.4862 336.88912C315.6707800000001 254.9861199999999 413.15909 165.9611199999999 516.4162200000001 71.55901L593.5 0.7663299999999L670.58378 71.55901C773.85278 165.94925 871.2936100000001 255.0335999999999 946.54941 336.88912C1052.78591 452.38422 1102.21259 540.69702 1102.21259 614.80143C1102.21259 715.76765 1038.20955 788.88685 931.07093 810.40716C823.93231 831.92747 717.16166 790.95223 665.37285 708.32516L592.83528 592.5689199999999L521.29479 708.89492C473.613 786.44163 389.336 817.81404 311.97921 817.81404z" />
    <glyph glyph-name="instagram"
      unicode="&#xF11A;"
      horiz-adv-x="1187" d=" M593.4341215 762.232765C424.3032395 762.232765 287.09969 625.1342649999999 287.09969 455.868065C287.09969 286.720565 424.1845395000001 149.503365 593.4341215 149.503365C762.56441 149.503365 899.76974 286.601865 899.76974 455.868065C899.4136400000001 624.8968649999999 762.4457100000001 761.876665 593.4341215 762.232765zM593.4341215 259.656965C485.0717045 259.656965 397.242607 347.494965 397.242607 455.868065C397.242607 564.2411649999999 485.0717045 652.079165 593.4341215 652.079165C701.795945 652.079165 789.62801 564.2411649999999 789.62801 455.868065C789.1532100000001 347.732365 701.5585450000001 260.131765 593.4341215 259.656965z M911.764375 699.917639C950.1104100000002 699.917639 981.19794 731.0069495 981.19794 769.357139C981.19794 807.707922 950.1104100000002 838.796639 911.764375 838.796639C873.4183400000001 838.796639 842.33081 807.707922 842.33081 769.357139C842.33081 731.0069495 873.4183400000001 699.917639 911.764375 699.917639z M1091.2209699999999 948.8351C1028.909405 1013.5266 940.36514 1047 839.95681 1047H346.925677C138.7466495 1047 0 908.2397 0 700.0399V209.4528C0 106.5399 33.4700764 17.9896999999999 100.5288105 -46.7018C165.095082 -108.9005999999999 251.262973 -140 349.4177835 -140H837.58281C940.48384 -140 1026.654105 -106.5265999999999 1088.84697 -46.7018C1153.413835 15.4970000000001 1187 104.0472 1187 206.9601V700.0399C1187 800.5788 1153.532535 886.755 1091.33967 948.9538L1091.2209699999999 948.8351zM1081.60627 206.9601C1081.60627 132.7726 1055.25487 72.9478 1012.172705 32.2337C969.09054 -8.4803999999999 909.271675 -29.9651000000001 837.46411 -29.9651000000001H349.4177835C277.6114055 -29.9651000000001 217.7925405 -8.3616999999999 174.7091885 32.2337C131.625243 75.3217999999999 110.1423235 135.1465999999999 110.1423235 209.3340999999999V700.0399C110.1423235 771.8534 131.743943 831.6782 174.7091885 874.7663C215.419134 915.4804 277.6114055 936.9651 349.4177835 936.9651H842.33081C914.138375 936.9651 973.95724 915.3617 1017.039405 872.3923C1060.00287 825.3871 1083.14937 763.6631 1081.60627 700.0399V207.0788V206.9601z" />
    <glyph glyph-name="like-fill"
      unicode="&#xF11B;"
      horiz-adv-x="1187" d=" M1101.60722 376.9741099999999C1097.5476800000001 420.43018 1072.30019 457.9393799999999 1036.85637 479.3884699999999C1045.64017 501.4073199999999 1049.20117 528.1979099999999 1046.95774 558.5376299999999C1041.8299 627.2174499999999 982.21876 683.10141 914.07309 683.10141H658.7850000000001C668.47092 712.9425899999999 677.3259400000001 750.3687 677.3259400000001 788.4120499999999C677.3259400000001 967.91019 588.9063100000001 1026.48864 514.84938 1043.99689A106.22463 106.22463 0 0 1 423.5690800000001 1023.67545C396.56483 1002.30945 381.0270000000001 969.845 381.0270000000001 934.79289V850.38532A150.83209 150.83209 0 0 0 356.19496 767.42589L144.08993 587.3936L136.96793 579.6899699999999A285.09366 285.09366 0 0 1 84.81115 415.516V57.0419999999999A210.19396000000003 210.19396000000003 0 0 1 163.71104 -106.9776600000002A150.9864 150.9864 0 0 1 257.30599 -140H852.6458400000001C919.86565 -140 976.1650600000002 -89.24388 983.7856000000002 -21.7747999999999C987.0142400000002 7.46101 983.37015 34.6077 974.01659 57.55241A132.04188000000002 132.04188000000002 0 0 1 1045.80635 157.937C1050.26947 190.88812 1046.20993 221.1922299999999 1035.2064400000002 246.20232A132.20806 132.20806 0 0 1 1066.74503 271.6159899999999A137.692 137.692 0 0 1 1101.60722 376.9741099999999z" />
    <glyph glyph-name="like"
      unicode="&#xF11C;"
      horiz-adv-x="1187" d=" M852.6458400000001 -140H257.30599A150.9864 150.9864 0 0 0 163.71104 -107.04888A210.19396000000003 210.19396000000003 0 0 0 84.81115 56.97078V415.516A285.09366 285.09366 0 0 0 137.03915 579.70184L144.16115 587.4054699999999L356.27805 767.43776A150.83209 150.83209 0 0 1 381.0270000000001 850.38532V934.79289C381.0270000000001 969.90435 396.55296 1002.30945 423.59282 1023.67545A106.22463 106.22463 0 0 0 514.87312 1043.99689C588.93005 1026.48864 677.34968 967.91019 677.34968 788.41205C677.34968 750.3687 668.49466 712.94259 658.8087400000001 683.10141H914.01374C982.15941 683.10141 1041.77055 627.21745 1046.89839 558.53763C1049.14182 528.19791 1045.5808200000001 501.40732 1036.7970200000002 479.38847C1072.2408400000002 457.93938 1097.4883300000001 420.43018 1101.54787 376.9741099999999A137.692 137.692 0 0 0 1066.68568 271.6515999999999A132.20806 132.20806 0 0 0 1035.14709 246.2379299999999C1046.15058 221.2278399999999 1050.21012 190.9237299999999 1045.7469999999998 157.9726099999999A132.04188000000002 132.04188000000002 0 0 0 973.9572399999998 57.5524099999999C983.3107999999997 34.6076999999998 986.95489 7.4610099999998 983.72625 -21.7748000000001C976.16506 -89.24388 919.925 -140 852.6458400000001 -140zM203.20253 526.33432A199.81958000000003 199.81958000000003 0 0 1 169.58669 415.516V57.0419999999999C169.58669 19.2835299999999 186.51331 -16.81314 214.91822 -39.3305300000002C228.45002 -50.0966200000003 242.5753200000001 -55.1413700000003 257.30599 -55.1413700000003H852.6458400000001C876.6469800000001 -55.1413700000003 896.7666300000001 -36.7666100000001 899.5086000000001 -12.33815S896.1137800000001 40.0678999999999 876.4808000000002 43.9612599999998L842.3782900000001 50.7508999999999V127.9058999999999L919.04662 129.449C940.31766 129.449 958.70429 146.67237 961.84984 169.43903C965.24466 194.93579 959.77259 224.24282 939.41554 228.4685400000001L905.681 235.38875V312.47253L948.23495 313.95628L971.83251 313.87319C983.99926 313.87319 995.4300700000002 319.17908 1004.1189100000003 328.69882A52.72654 52.72654 0 0 1 1017.1759100000002 369.05682C1014.885 394.15 993.6377000000002 413.72363 968.88875 413.72363H909.242V492.5522999999999L945.2555800000002 498.9264899999999C965.12596 501.94147 962.96562 543.84257 962.3127700000002 552.1990499999999C960.60349 576.37824 937.58756 598.314 914.07309 598.314H525.6036L558.3054500000001 660.5009299999999C558.6378100000001 661.1656499999999 592.53853 726.4031699999999 592.53853 788.4120499999999C592.53853 922.9585 537.03441 951.64829 495.29949 961.536A23.063410000000005 23.063410000000005 0 0 1 476.17692 957.15597A28.120030000000007 28.120030000000007 0 0 1 465.8262799999999 934.79289V850.38532A232.39086 232.39086 0 0 0 422.32273 714.07024L415.31943 706.4022199999999z" />
    <glyph glyph-name="link"
      unicode="&#xF11D;"
      horiz-adv-x="1187" d=" M678.67912 124.64165L500.10684 -53.9306300000001A292.5955 292.5955 0 0 0 85.57083 -53.9306300000001C30.67208 1.4785300000001 0 74.6808199999999 0 153.3314399999999A293.189 293.189 0 0 0 85.57083 360.5935100000001L326.425 600.9966199999999C442.66791 717.73807 628.6708100000001 712.80015 740.94914 600.9966199999999A289.29564000000005 289.29564000000005 0 0 0 794.87455 525.3135L716.22393 446.66288C707.32143 476.83642 691.48685 505.53808 668.74393 528.281C597.01352 600.0114100000001 474.34894 602.97891 399.65103 528.281L158.28645 287.87789C84.08708 213.6785200000001 84.08708 92.9843599999999 158.28645 18.7849899999999C233.4829 -56.3995900000002 354.14145 -54.9158400000001 427.3912200000001 18.7849899999999L547.58684 138.49394C596.56246 124.64165 636.13704 122.17269 678.67912 124.64165zM686.58454 961.12055L509.99455 784.03202C552.03809 786.50098 591.61267 784.03202 641.0749599999999 770.1797300000001L759.30016 888.40493C833.4995299999999 962.6043 954.19369 962.6043 1028.40493 888.40493C1103.58951 813.20848 1102.1057600000001 692.5499299999999 1028.40493 619.30016L789.48557 380.3807999999999C718.26557 309.1608 597.04913 303.71247 520.3808 380.3807999999999C497.13934 403.6341300000001 481.8033 431.82538 472.9008 461.51225L468.93622 458.54475L393.7516400000001 383.3483C407.6039300000001 355.6555899999999 424.9103900000001 330.4199699999999 447.6651800000001 307.66518C558.47163 196.3720599999999 744.4151800000002 190.43706 862.1893200000002 307.66518L1101.10868 546.5845400000001C1215.38117 661.35557 1215.86784 846.34952 1101.10868 961.12055C986.84806 1075.87971 801.3555700000001 1075.38117 686.58454 961.12055z" />
    <glyph glyph-name="login"
      unicode="&#xF11E;"
      horiz-adv-x="1187" d=" M370.9375 1047V898.625H1038.625V8.375H370.9375V-140H1187V82.5625V824.4375V1047H370.9375z M593.5 527.6875H0V379.3125H593.5V527.6875z M939.708729 453.5L593.5 713.15625V193.84375L939.708729 453.5z" />
    <glyph glyph-name="logout"
      unicode="&#xF11F;"
      horiz-adv-x="1187" d=" M370.9375 1047V898.625H1038.625V8.375H370.9375V-140H1187V1047H370.9375z M346.208729 193.84375L0 453.5L346.208729 713.15625V527.6875H816.0625V379.3125H346.208729V193.84375z" />
    <glyph glyph-name="more"
      unicode="&#xF120;"
      horiz-adv-x="1187" d=" M237.4 453.5C237.4 392.03714 184.25801 342.21875 118.7 342.21875S0 392.03714 0 453.5S53.14199 564.78125 118.7 564.78125S237.4 514.96286 237.4 453.5z M712.2 453.5C712.2 392.03714 659.0580100000001 342.21875 593.5 342.21875S474.8 392.07275 474.8 453.5S527.94199 564.78125 593.5 564.78125S712.2 514.96286 712.2 453.5z M1187 453.5C1187 392.03714 1133.8580100000001 342.21875 1068.3 342.21875S949.6 392.07275 949.6 453.5S1002.74199 564.78125 1068.3 564.78125S1187 514.96286 1187 453.5z" />
    <glyph glyph-name="mute"
      unicode="&#xF121;"
      horiz-adv-x="1187" d=" M222.5625 638.96875L519.3125 972.8125V-65.8125L222.5625 268.03125H74.1875V638.96875H222.5625z M745.602921875 676.0625L902.976865625 518.6848468750001L1060.35451875 676.0625L1112.8125 623.6082281250001L955.434846875 466.234284375L1112.8125 308.85663125L1060.350809375 256.402359375L902.976865625 413.7800125000001L745.602921875 256.402359375L693.144940625 308.85663125L850.5225937499999 466.234284375L693.144940625 623.6082281250001L745.602921875 676.0625z" />
    <glyph glyph-name="news"
      unicode="&#xF122;"
      horiz-adv-x="1187" d=" M0 1047V-140H1102.2137770000002V1047H0zM1024.359634 -61.745838H77.8548552V968.7459567H1023.484815V-61.745838H1024.359634z M551.109856 888.7301679999999H157.462672V493.063897H551.109856V888.7301679999999z M944.754666 255.6733930000001H551.107482V18.2733929999999H944.754666V255.6733930000001z M944.746357 730.4615229999999H629.8281350000001V651.327794H944.746357V730.4615229999999z M944.746357 572.21187H629.8281350000001V493.0793279999999H944.746357V572.21187z M472.380894 255.6733930000001H157.462672V176.539664H472.380894V255.6733930000001z M472.380894 97.403561H157.462672V18.271019H472.380894V97.403561z M944.746357 888.7301679999999H629.8281350000001V809.597626H944.746357V888.7301679999999z M944.7582270000001 413.9432249999999H157.462672V334.809496H944.7582270000001V413.9432249999999z" />
    <glyph glyph-name="notification"
      unicode="&#xF123;"
      horiz-adv-x="1187" d=" M461.6112430000001 -140V123.7775139999999H169.571259C75.9198078 123.7775139999999 0 199.6968470000001 0 293.348773V877.428741C0 971.0801922 75.9196891 1047 169.571259 1047H1017.428741C1111.0806670000002 1047 1187 971.0803109 1187 877.428741V293.348773C1187 199.6968470000001 1111.0806670000002 123.7775139999999 1017.428741 123.7775139999999H758.3612430000001L461.6112430000001 -140zM588.789984 250.956255V143.20633L710.0076110000001 250.956255H1017.428741C1040.841129 250.956255 1059.821259 269.936385 1059.821259 293.348773V877.428741C1059.821259 900.841129 1040.841129 919.821259 1017.428741 919.821259H169.571259C146.158871 919.821259 127.178741 900.841129 127.178741 877.428741V293.348773C127.178741 269.936385 146.158871 250.956255 169.571259 250.956255H588.789984z M254.3567698 580.678741C254.3567698 533.8528652661463 292.3166422661464 495.8929927999999 339.142518 495.8929927999999C385.9683937338537 495.8929927999999 423.9282662000001 533.8528652661463 423.9282662000001 580.678741C423.9282662000001 627.5046167338536 385.9683937338537 665.4644891999999 339.142518 665.4644891999999C292.3166422661464 665.4644891999999 254.3567698 627.5046167338536 254.3567698 580.678741z M508.7142518 580.678741C508.7142518 533.8528652661463 546.6741242661464 495.8929927999999 593.5 495.8929927999999C640.3258757338536 495.8929927999999 678.2857482 533.8528652661463 678.2857482 580.678741C678.2857482 627.5046167338536 640.3258757338536 665.4644891999999 593.5 665.4644891999999C546.6741242661464 665.4644891999999 508.7142518 627.5046167338536 508.7142518 580.678741z M763.0717338000001 580.678741C763.0717338000001 533.8528652661463 801.0316062661464 495.8929927999999 847.857482 495.8929927999999C894.6833577338537 495.8929927999999 932.6432302 533.8528652661463 932.6432302 580.678741C932.6432302 627.5046167338536 894.6833577338537 665.4644891999999 847.857482 665.4644891999999C801.0316062661464 665.4644891999999 763.0717338000001 627.5046167338536 763.0717338000001 580.678741z" />
    <glyph glyph-name="pause"
      unicode="&#xF124;"
      horiz-adv-x="1187" d=" M408.03125 898.625H185.46875V8.375H408.03125V898.625z M1001.53125 898.625H778.96875V8.375H1001.53125V898.625z" />
    <glyph glyph-name="play-speed"
      unicode="&#xF125;"
      horiz-adv-x="1187" d=" M749.9874031249999 379.0454249999999L489.173828125 240.2109375V518.4140625L749.9874031249999 379.0454249999999z M445.125 898.625H556.40625V822.9140596875C327.92507125 804.064870625 148.3738871875 612.6581531249999 148.3738871875 379.3125C148.3738871875 133.4773812499999 347.6630265625 -65.8125 593.5 -65.8125C839.3351187500001 -65.8125 1038.625 133.4773812499999 1038.625 379.3125C1038.625 612.6581531249999 859.0727031250001 804.0644996875001 630.59375 822.9140596875V898.625H741.875V972.8125H445.125V898.625zM630.59375 748.418310625V676.0625H556.40625V748.418310625C381.1605375000001 731.01911625 241.7922709375 591.6519625 224.3930765625 416.40625H296.7488871875001V342.21875H224.3930765625C241.7922709375 166.9730375 381.1605375000001 27.6043999999999 556.40625 10.2074312499999V82.5625H630.59375V10.2074312499999C805.8394625 27.6043999999999 945.204390625 166.9730375 962.6050687500002 342.21875H890.25V416.40625H962.6050687500002C945.204390625 591.6519625 805.8394625 731.0187453125 630.59375 748.418310625z M934.4805875 877.6681440625L1091.85453125 720.2927165625L1039.39655 667.8351062500001L882.02260625 825.2094209375L934.4805875 877.6681440625z M95.143243125 720.2927165625L252.518670625 877.6681440625L304.97739375 825.209791875L147.6015953125 667.8351062500001L95.143243125 720.2927165625z" />
    <glyph glyph-name="play"
      unicode="&#xF126;"
      horiz-adv-x="1187" d=" M259.65625 8.375L1094.265625 452.650553125L259.65625 898.625V8.375z" />
    <glyph glyph-name="player"
      unicode="&#xF127;"
      horiz-adv-x="1187" d=" M1187 -140H0V-78.6712709999999C0 45.9637289999999 9.89166271 118.1725 157.2775 151.8037709999999C323.4575000000001 190.381271 487.6587710000001 225.0025 409.5150000000001 370.41C175.0825 802.6762289999999 342.2512710000001 1047 593.5 1047C839.8025 1047 1011.9175 811.578729 778.473771 370.41C701.318771 225.9912709999999 859.5862290000001 191.371229 1029.7225 151.8037709999999C1177.108729 118.1725 1187 45.9637289999999 1187 -78.6712709999999V-140z" />
    <glyph glyph-name="playstart"
      unicode="&#xF128;"
      horiz-adv-x="1187" d=" M593.5 -65.8125C880.308875 -65.8125 1112.8125 166.6911250000001 1112.8125 453.5C1112.8125 740.3085040625 880.308875 972.8125 593.5 972.8125C306.6914959375 972.8125 74.1875 740.3085040625 74.1875 453.5C74.1875 166.6911250000001 306.6914959375 -65.8125 593.5 -65.8125zM593.5 -10.171875C849.5804125000001 -10.171875 1057.171875 197.4195874999999 1057.171875 453.5C1057.171875 709.57892875 849.5804125000001 917.171875 593.5 917.171875C337.42107125 917.171875 129.828125 709.57892875 129.828125 453.5C129.828125 197.4195874999999 337.42107125 -10.171875 593.5 -10.171875z M447.443359375 258.7578125L812.5831062499999 453.1290624999999L447.443359375 648.2421875V258.7578125z" />
    <glyph glyph-name="point-fill"
      unicode="&#xF129;"
      horiz-adv-x="1187" d=" M632.6264875 368.7593281249999H557.5487375V227.432140625H474.0878V665.323859375H632.6264875C718.35014375 665.323859375 783.41258125 601.3371406250001 783.41258125 517.319796875C783.41258125 433.3024531250001 718.35014375 368.7593281249999 632.6264875 368.7593281249999zM593.4925812500001 972.8306759375C306.6822225 972.8306759375 74.1785975 740.3270509375 74.1785975 453.518546875C74.1785975 166.709671875 306.6822225 -65.7939531250001 593.4925812500001 -65.7939531250001C880.33855 -65.7939531250001 1112.80508125 166.709671875 1112.80508125 453.518546875C1112.80508125 740.3270509375 880.33855 972.8306759375 593.4925812500001 972.8306759375z M627.08468125 587.44553125H557.5339V446.67475H627.08468125C664.92030625 446.67475 694.37274375 477.8335000000001 694.37274375 517.89475C694.37274375 557.3625 665.43961875 587.44553125 627.08468125 587.44553125z" />
    <glyph glyph-name="purchase-history"
      unicode="&#xF12A;"
      horiz-adv-x="1187" d=" M258.502486 893.513778C392.4518750000001 979.2468709 572.975583 963.7489241 689.94375 846.7720919999999C725.471847 811.241621 751.602465 769.7761499999999 768.418694 725.5900750000001H872.774986C852.579368 795.579156 814.991826 861.610779 759.928083 916.678083C603.88625 1072.6472716 361.1293190000001 1088.5574635 187.282486 964.7381699L112.9304678 1039.09566017L60.4220984 776.783011L322.715625 829.212801L258.502486 893.513778z M321.4787710000001 278.621664C277.2962570000001 295.43908 235.8343470000001 321.570885 200.30625 357.101356C132.795625 424.616729 99.0815014 513.235775 99.0815014 601.936724H0C0 488.009651 43.4408764 374.083765 130.405007 287.1953649999999C185.550653 232.0461579999999 251.577528 194.4550549999999 321.4787710000001 174.3401529999999V278.621664z M964.4375 676.124224H370.9375V-139.9940650000001H1187V453.546293L964.4375 676.124224zM519.3125 527.7397279999999H843.923764V453.546293H519.3125V527.7397279999999zM1038.625 8.390431H519.3125V82.5838659999999H1038.625V8.390431zM1038.625 156.776114H519.3125V230.968362H1038.625V156.776114zM1038.625 305.1617969999999H519.3125V379.354045H1038.625V305.1617969999999z" />
    <glyph glyph-name="quality"
      unicode="&#xF12B;"
      horiz-adv-x="1187" d=" M222.5613871875 861.53125C222.5613871875 882.01738625 239.1690009375 898.625 259.6551371875001 898.625C280.141644375 898.625 296.7488871875001 882.01738625 296.7488871875001 861.53125V824.4375H408.03125C428.5181281250001 824.4375 445.125 807.82988625 445.125 787.34375C445.125 766.8576137499999 428.5181281250001 750.25 408.03125 750.25H385.09989375C373.5600281250001 720.8569124999999 347.3481006250001 679.8620128125 313.4685240625 641.628371875C345.695203125 616.834909375 378.5491375 601.875 408.03125 601.875C428.5181281250001 601.875 445.125 585.268128125 445.125 564.78125C445.125 544.294371875 428.5181281250001 527.6875 408.03125 527.6875C352.7114859375 527.6875 301.207926875 555.76746875 259.655508125 589.630353125C218.103089375 555.76746875 166.599159375 527.6875 111.2801371875 527.6875C90.7940009375 527.6875 74.1863871875 544.294371875 74.1863871875 564.78125C74.1863871875 585.268128125 90.7940009375 601.875 111.2801371875 601.875C140.759653125 601.875 173.6154421875 616.834909375 205.84212125 641.628371875C171.9625446875 679.8620128125 145.750988125 720.8569124999999 134.2122353125 750.25H111.280508125C90.7940009375 750.25 74.1863871875 766.8576137499999 74.1863871875 787.34375C74.1863871875 807.82988625 90.7940009375 824.4375 111.2801371875 824.4375H222.5613871875V861.53125zM217.19726 750.25H302.1133853125001C291.9407953125001 733.3905196875 277.46570125 713.0876265625 259.6551371875001 692.755429375C241.8449440625 713.0876265625 227.36985 733.39014875 217.19726 750.25z M259.655508125 490.59375C273.7055078125 490.59375 286.5495896875001 482.6556875 292.8329 470.0883250000001L441.2079 173.338325C450.37005625 155.0140124999999 442.9438875 132.73550625 424.619575 123.57335C406.2952625000001 114.41119375 384.013046875 121.8373625000001 374.850890625 140.1616750000001L348.011336875 193.84375H171.2993084375L144.4579 140.1616750000001C135.2961146875 121.8373625000001 113.015011875 114.41119375 94.69144125 123.57335C76.367870625 132.73550625 68.94096 155.0140124999999 78.1027453125 173.338325L226.4777453125 470.0883250000001C232.761055625 482.6556875 245.6051375 490.59375 259.655508125 490.59375zM208.3930584375 268.03125H310.917586875L259.655508125 370.554665625L208.3930584375 268.03125z M778.9094 972.8125C676.47871875 972.8125 593.44065 889.775173125 593.44065 787.34375H667.62815C688.115028125 787.34375 704.7219 770.7361362500001 704.7219 750.25C704.7219 729.7638637499999 688.115028125 713.15625 667.62815 713.15625H593.44065V638.96875H667.62815C688.115028125 638.96875 704.7219 622.361878125 704.7219 601.875C704.7219 581.388121875 688.115028125 564.78125 667.62815 564.78125H593.44065V490.59375H667.62815C688.115028125 490.59375 704.7219 473.986878125 704.7219 453.5C704.7219 433.013121875 688.115028125 416.40625 667.62815 416.40625H593.44065C593.44065 313.9755687500001 676.47871875 230.9375 778.9094 230.9375C881.3400812499999 230.9375 964.37815 313.9755687500001 964.37815 416.40625H890.19065C869.703771875 416.40625 853.0969 433.013121875 853.0969 453.5C853.0969 473.986878125 869.703771875 490.59375 890.19065 490.59375H964.37815V564.78125H890.19065C869.703771875 564.78125 853.0969 581.388121875 853.0969 601.875C853.0969 622.361878125 869.703771875 638.96875 890.19065 638.96875H964.37815V713.15625H890.19065C869.703771875 713.15625 853.0969 729.7638637499999 853.0969 750.25C853.0969 770.7361362500001 869.703771875 787.34375 890.19065 787.34375H964.37815C964.37815 889.775173125 881.3400812499999 972.8125 778.9094 972.8125z M445.125 416.3469C445.125 436.833778125 461.731871875 453.5 482.21875 453.5C502.705628125 453.5 519.3125 436.833778125 519.3125 416.3469C519.3125 272.9758468749999 635.5383468749999 156.75 778.9094 156.75C922.2804531249998 156.75 1038.5063 272.9758468749999 1038.5063 416.3469C1038.5063 436.833778125 1055.113171875 453.5 1075.60005 453.5C1096.086928125 453.5 1112.6938 436.833778125 1112.6938 416.3469C1112.6938 244.5397781250001 982.891640625 103.0530875 816.00315 84.598946875V8.375H890.19065C910.677528125 8.375 927.2844 -8.231871875 927.2844 -28.71875C927.2844 -49.205628125 910.677528125 -65.8125 890.19065 -65.8125H667.62815C647.141271875 -65.8125 630.5344 -49.205628125 630.5344 -28.71875C630.5344 -8.231871875 647.141271875 8.375 667.62815 8.375H741.81565V84.598946875C574.927159375 103.0530875 445.125 244.5397781250001 445.125 416.3469z" />
    <glyph glyph-name="reduced-screen"
      unicode="&#xF12C;"
      horiz-adv-x="1187" d=" M482.21875 898.625V564.78125H148.375V638.96875H408.03125V898.625H482.21875z M1038.625 564.78125H704.78125V898.625H778.96875V638.96875H1038.625V564.78125z M704.78125 8.375H778.96875V268.03125H1038.625V342.21875H704.78125V8.375z M148.375 342.21875H482.21875V8.375H408.03125V268.03125H148.375V342.21875z" />
    <glyph glyph-name="refresh"
      unicode="&#xF12D;"
      horiz-adv-x="1187" d=" M592.9065 914.460767V1047L329.212076 848.703341L592.9065 651.2850619999999V768.00752C799.766177 768.00752 967.968825 597.243326 967.968825 387.2297899999999C967.968825 177.218628 799.766177 6.4532469999999 592.9065 6.4532469999999C386.046823 6.4532469999999 217.847736 177.218628 217.847736 387.2297899999999C217.847736 448.4469409999999 232.2733470000001 506.150572 257.5172760000001 557.408793L128.410847 623.019031C93.3567191 551.9901379999999 73.594 472.0255090000001 73.594 387.2297899999999C73.594 96.0788689999999 306.129674 -140 592.9065 -140C879.6857000000001 -140 1112.219 96.0788689999999 1112.219 387.2297899999999C1112.219 678.378337 879.6857000000001 914.460767 592.9065 914.460767z" />
    <glyph glyph-name="rew-10s"
      unicode="&#xF12E;"
      horiz-adv-x="1187" d=" M513.1697750000001 268.03125H468.0341V580.683340625L390.4413937500001 545.94504375V588.54350625L506.07003125 639.0058437499999H513.1697750000001V268.03125z M807.46416875 425.4979281250001C807.46416875 371.066559375 799.5186874999999 330.3264937500001 783.6277249999999 303.27773125C767.7367624999999 276.3996 742.80234375 262.960534375 708.82446875 262.960534375C675.859253125 262.960534375 651.2623875 275.8914156250001 635.033871875 301.7568875C618.80535625 327.61865 610.3554 366.5003187499999 609.676584375 418.3981843749999V481.791403125C609.676584375 535.7182968750001 617.622065625 575.950178125 633.513028125 602.49075625C649.574621875 629.031334375 674.509040625 642.29976875 708.316284375 642.29976875C741.6190531249999 642.29976875 766.2159187499999 629.7064406249999 782.1068812499999 604.519784375C798.164765625 579.333128125 806.61843125 541.21188125 807.46416875 490.1597531250001V425.4979281250001zM762.58073125 489.65156875C762.58073125 528.700159375 758.2704375 557.440396875 749.6498499999999 575.8648625000001C741.025553125 594.459959375 727.248934375 603.7593625 708.316284375 603.7593625C689.8918187500001 603.7593625 676.3674375 594.630590625 667.74685 576.373046875C659.1225531250001 558.286134375 654.6453375 530.89981875 654.307784375 494.217809375V418.1459468750001C654.307784375 379.2642781250001 658.7850000000001 350.0195656250001 667.74685 330.4081C676.7049906249999 310.970975 690.39629375 301.2487031249999 708.82446875 301.2487031249999C727.0820124999999 301.2487031249999 740.521078125 310.4627906249999 749.1416656250001 328.88725625C757.762253125 347.31543125 762.243178125 375.4621687500001 762.58073125 413.3274687500001V489.65156875z M593.5 -65.8125C880.308875 -65.8125 1112.8125 166.6911250000001 1112.8125 453.5C1112.8125 740.3085040625 880.308875 972.8125 593.5 972.8125V1047L471.090625 944.9921875L593.5 842.984375V917.171875C849.5804125000001 917.171875 1057.171875 709.57892875 1057.171875 453.5C1057.171875 197.4195874999999 849.5804125000001 -10.171875 593.5 -10.171875C337.42107125 -10.171875 129.828125 197.4195874999999 129.828125 453.5H74.1875C74.1875 166.6911250000001 306.6914959375 -65.8125 593.5 -65.8125z" />
    <glyph glyph-name="rew-30s"
      unicode="&#xF12F;"
      horiz-adv-x="1187" d=" M436.845675 475.45208125H465.4968875C483.9250625 475.45208125 498.12455 481.116296875 508.099059375 492.44101875C518.069859375 503.765740625 523.0589687500001 519.233834375 523.0589687500001 538.8453C523.0589687500001 582.11886875 506.32226875 603.7593625 472.852578125 603.7593625C456.7909843750001 603.7593625 444.19765625 597.928225 435.068884375 586.262240625C425.9401125 574.59625625 421.37758125 559.29879375 421.37758125 540.36614375H376.74638125C376.74638125 569.948409375 385.70823125 594.2930375000001 403.628221875 613.3926093749999C421.715134375 632.666521875 444.79115625 642.29976875 472.852578125 642.29976875C501.926659375 642.29976875 525.00268125 633.17470625 542.076934375 614.9171624999999C559.1511875 596.826540625 567.686459375 571.1317 567.686459375 537.8289312500001C567.686459375 520.7583875 563.205534375 504.782109375 554.24739375 489.90380625C545.456175 475.19984375 533.960821875 464.3795968750001 519.761334375 457.446775C554.584946875 444.6012093750001 571.9967531249999 415.779365625 571.9967531249999 370.9812437500001C571.9967531249999 338.0160281250001 562.782665625 311.731396875 544.3582 292.1199312500001C526.10065625 272.6790968750001 502.18260625 262.960534375 472.59663125 262.960534375C443.35191875 262.960534375 419.68610625 272.174621875 401.59919375 290.5990875C383.679203125 309.194184375 374.7210625 334.1286031250001 374.7210625 365.40234375H419.600790625C419.600790625 345.7945874999999 424.3339531250001 330.1558625 433.800278125 318.4935875C443.266603125 306.9982343750001 456.20119375 301.2487031249999 472.59663125 301.2487031249999C489.33333125 301.2487031249999 502.601765625 306.91291875 512.409353125 318.2376406250001C522.380153125 329.5660718749999 527.3692625 346.8072468750001 527.3692625 369.964875C527.3692625 414.762996875 506.1516375 437.1639125000001 463.72380625 437.1639125000001H436.845675V475.45208125z M807.46416875 425.4979281250001C807.46416875 371.066559375 799.5186874999999 330.3264937500001 783.6277249999999 303.27773125C767.7367624999999 276.3996 742.80234375 262.960534375 708.82446875 262.960534375C675.859253125 262.960534375 651.2623875 275.8914156250001 635.033871875 301.7568875C618.80535625 327.61865 610.3554 366.5003187499999 609.676584375 418.3981843749999V481.791403125C609.676584375 535.7182968750001 617.622065625 575.950178125 633.513028125 602.49075625C649.574621875 629.031334375 674.509040625 642.29976875 708.316284375 642.29976875C741.6190531249999 642.29976875 766.2159187499999 629.7064406249999 782.1068812499999 604.519784375C798.164765625 579.333128125 806.61843125 541.21188125 807.46416875 490.1597531250001V425.4979281250001zM762.58073125 489.65156875C762.58073125 528.700159375 758.2704375 557.440396875 749.6498499999999 575.8648625000001C741.025553125 594.459959375 727.248934375 603.7593625 708.316284375 603.7593625C689.8918187500001 603.7593625 676.3674375 594.630590625 667.74685 576.373046875C659.1225531250001 558.286134375 654.6453375 530.89981875 654.307784375 494.217809375V418.1459468750001C654.307784375 379.2642781250001 658.7850000000001 350.0195656250001 667.74685 330.4081C676.7049906249999 310.970975 690.39629375 301.2487031249999 708.82446875 301.2487031249999C727.0820124999999 301.2487031249999 740.521078125 310.4627906249999 749.1416656250001 328.88725625C757.762253125 347.31543125 762.243178125 375.4621687500001 762.58073125 413.3274687500001V489.65156875z M593.5 -65.8125C880.308875 -65.8125 1112.8125 166.6911250000001 1112.8125 453.5C1112.8125 740.3085040625 880.308875 972.8125 593.5 972.8125V1047L471.090625 944.9921875L593.5 842.984375V917.171875C849.5804125000001 917.171875 1057.171875 709.57892875 1057.171875 453.5C1057.171875 197.4195874999999 849.5804125000001 -10.171875 593.5 -10.171875C337.42107125 -10.171875 129.828125 197.4195874999999 129.828125 453.5H74.1875C74.1875 166.6911250000001 306.6914959375 -65.8125 593.5 -65.8125z" />
    <glyph glyph-name="sale"
      unicode="&#xF130;"
      horiz-adv-x="1187" d=" M593.5 -90.5416666666667C893.9643208333333 -90.5416666666667 1137.5416666666667 153.0356791666667 1137.5416666666667 453.5C1137.5416666666667 753.9658045833332 893.9643208333333 997.5416666666666 593.5 997.5416666666666C293.0341954166667 997.5416666666666 49.4583333333333 753.9658045833332 49.4583333333333 453.5C49.4583333333333 153.0356791666667 293.0341954166667 -90.5416666666667 593.5 -90.5416666666667zM593.5 -140C921.2801583333334 -140 1187 125.7198416666665 1187 453.5C1187 781.2811475 921.2801583333334 1047 593.5 1047C265.7188525000001 1047 0 781.2811475 0 453.5C0 125.7198416666665 265.7188525000001 -140 593.5 -140z M318.00175125 378.9267250000001C318.00175125 390.3911666666667 315.0391970833334 399.0167 309.1145833333334 404.8132166666666C303.31856125 410.7383250000001 292.6929329166667 416.8563208333333 277.2372037500001 423.1672041666666C249.0306216666667 433.8600958333333 228.7447916666667 446.3532708333333 216.3802083333334 460.6467291666667C204.015625 475.073725 197.8333333333334 492.0725541666666 197.8333333333334 511.6531083333333C197.8333333333334 535.3485958333333 206.2051454166667 554.3485091666666 222.9487695833334 568.644935C239.82148 583.0704470833333 261.2018229166667 590.2829558333333 287.0902929166667 590.2829558333333C304.3492729166667 590.2829558333333 319.7402116666667 586.6126529166665 333.2640983333333 579.2710579166667C346.7879850000001 572.0585491666666 357.1559354166667 561.8186958333333 364.3689387500001 548.5539708333333C371.7100391666667 535.2843 375.3808366666667 520.2192916666667 375.3808366666667 503.3441083333333H318.7742904166667C318.7742904166667 516.4802416666666 315.9408225 526.4658791666667 310.2738866666667 533.2911291666667C304.7355425 540.2449708333334 296.6857041666667 543.7218916666666 286.1243716666667 543.7218916666666C276.2069866666667 543.7218916666666 268.4791220833334 540.7593375 262.9407779166667 534.8342291666667C257.4024337500001 529.0377125 254.6332616666667 521.1837291666666 254.6332616666667 511.2673333333332C254.6332616666667 503.5369958333333 257.7244075 496.5188583333332 263.9066991666667 490.207975C270.0889908333334 484.0256833333333 281.0365929166667 477.5862083333333 296.75 470.88955C324.1840429166667 460.9682083333333 344.08310875 448.7965125 356.4476920833333 434.3744625000001C368.9413616666667 419.9474666666667 375.1879491666667 401.5934791666666 375.1879491666667 379.3125C375.1879491666667 354.8405166666667 367.39578875 335.7149791666666 351.8109733333333 321.9309416666667C336.2266525000001 308.15185 315.0391970833334 301.2623041666667 288.2491016666667 301.2623041666667C270.0889908333334 301.2623041666667 253.5382541666667 304.9964083333333 238.5978808333334 312.4646166666667C223.6575075 319.9377708333333 211.9368716666667 330.6257166666666 203.4359733333333 344.5383458333333C195.06416125 358.4460291666666 190.8785025 374.8711416666667 190.8785025 393.8037916666666H247.8713183333334C247.8713183333334 377.5715666666667 251.02676 365.7905916666666 257.3376433333334 358.4460291666666C263.6490212500001 351.1064125000001 273.9526758333334 347.4366041666666 288.2491016666667 347.4366041666666C308.08436625 347.4366041666666 318.00175125 357.9316625 318.00175125 378.9267250000001z M547.1328125 362.6994458333333H469.6607845833334L454.5918195833333 305.125H394.5073633333334L482.4121320833333 586.4192708333333H534.3824541666667L622.8683583333334 305.125H562.2027666666667L547.1328125 362.6994458333333zM482.0253679166667 410.0310708333333H534.5753416666668L508.2981291666667 510.29795L482.0253679166667 410.0310708333333z M706.1314625 352.2637375H805.824625V305.125H649.3335125V586.4192708333333H706.1314625V352.2637375z M983.9488125 426.8370125H895.4678541666667V352.2637375H1000.1810375V305.125H838.6649583333334V586.4192708333333H999.7903166666669V539.0876458333332H895.4678541666667V472.6255375H983.9488125V426.8370125z" />
    <glyph glyph-name="screen-full"
      unicode="&#xF131;"
      horiz-adv-x="1187" d=" M148.375 898.625V564.78125H222.5625V824.4375H482.21875V898.625H148.375z M148.375 8.375H482.21875V82.5625H222.5625L222.5625 342.21875H148.375V8.375z M1038.625 342.21875V8.375H704.78125V82.5625H964.4375V342.21875H1038.625z M1038.625 898.625H704.78125V824.4375L964.4375 824.4375L964.4375 564.78125H1038.625L1038.625 898.625z" />
    <glyph glyph-name="search"
      unicode="&#xF132;"
      horiz-adv-x="1187" d=" M1187 -14.5115470000001L802.871369 344.060974C857.2810750000001 413.612052 890.25 500.1633439999999 890.25 592.8989059999999C890.25 823.188776 690.767528 1010.203 445.125 1010.203C199.482472 1010.203 0 823.188776 0 592.8989059999999C0 362.607849 199.482472 175.593625 445.125 175.593625C544.041271 175.593625 636.363757 206.507853 710.5512570000001 257.5120560000001L1093.026397 -102.6095L1187 -14.5115470000001zM445.125 299.2398540000001C272.021229 299.2398540000001 131.888757 430.6134530000001 131.888757 592.8989059999999C131.888757 755.183172 272.021229 886.556771 445.125 886.556771C618.2287709999999 886.556771 758.3600560000001 755.183172 758.3600560000001 592.8989059999999C758.3600560000001 430.6134530000001 618.2287709999999 299.2398540000001 445.125 299.2398540000001z" />
    <glyph glyph-name="send"
      unicode="&#xF133;"
      horiz-adv-x="1187" d=" M0 1047V601.875L890.25 453.5L0 305.125V-140L1187 453.5L0 1047z" />
    <glyph glyph-name="setting"
      unicode="&#xF134;"
      horiz-adv-x="1187" d=" M940.3859125 571.958890625L1112.8125 514.597115625V392.4028843750001L940.3859125 335.041109375C935.634203125 320.107165625 929.5248625 305.8520375000001 922.7367062500002 291.9344625L1004.198290625 129.6938187500001L917.64744375 43.1429718750001L755.0655375 124.2632937499999C741.1479625 117.4751375 726.551571875 111.70335 711.958890625 106.6140875L654.5971156249999 -65.8125H532.402884375L475.382371875 106.272825C460.448428125 111.0245343749999 446.1933 117.133875 432.275725 123.9220312499999L269.6934478125001 42.801709375L183.1411171875 129.3525562499999L264.262551875 291.9344625C257.474395625 305.8520375000001 251.704091875 320.448428125 246.6129746875 335.041109375L74.1875 392.4028843750001V514.597115625L246.6129746875 571.958890625C251.3646840625 586.892834375 257.474395625 601.1479625 264.262551875 615.0655375L183.1411171875 777.6459600000001L269.35404 863.8588828125L431.9344625 782.737448125C445.8520375 789.5256043750001 460.107165625 795.295908125 475.041109375 800.3870253125L532.402884375 972.8125H654.5971156249999L711.958890625 800.3870253125C726.892834375 795.6353159375 741.1479625 789.5256043750001 755.0655375 782.737448125L917.3061812499998 864.198290625L1003.857028125 777.6459600000001L922.7367062500002 615.0655375C929.5248625 601.1479625 935.29665 586.892834375 940.3859125 571.958890625zM593.5 268.03125C695.9306812499999 268.03125 778.96875 351.0693187500001 778.96875 453.5C778.96875 555.93068125 695.9306812499999 638.96875 593.5 638.96875C491.06931875 638.96875 408.03125 555.93068125 408.03125 453.5C408.03125 351.0693187500001 491.06931875 268.03125 593.5 268.03125z" />
    <glyph glyph-name="share"
      unicode="&#xF135;"
      horiz-adv-x="1187" d=" M981.461454 271.02249C916.711791 271.02249 858.90133 240.8857469999999 821.210519 193.9577019999999L472.29543 376.743832C480.3836480000001 400.8850379999999 484.81828 426.710597 484.81828 453.520179C484.81828 480.3713059999999 480.3836480000001 506.15532 472.29543 530.297713L821.210519 713.082656C858.90133 666.1546109999999 916.711791 636.019055 981.461454 636.019055C1094.783157 636.019055 1186.9584550000002 728.191979 1186.9584550000002 841.510121C1186.9584550000002 954.8269573 1094.783157 1047 981.461454 1047C868.139751 1047 775.963266 954.8269573 775.963266 841.510121C775.963266 826.7284099999999 777.5657160000001 812.276685 780.562891 798.35911L425.324653 612.288551C380.858446 663.486235 315.370469 695.92101 242.40914 695.92101C108.7638604 695.92101 0 587.202493 0 453.520179C0 319.8390519999999 108.7638604 211.119348 242.40914 211.119348C315.370469 211.119348 380.858446 243.55531 425.324653 294.7114489999999L780.562891 108.64089C777.5657160000001 94.723315 775.963266 80.311948 775.963266 65.4898789999999C775.963266 -47.827076 868.139751 -140 981.461454 -140C1094.783157 -140 1186.9584550000002 -47.827076 1186.9584550000002 65.4898789999999C1186.9584550000002 178.808021 1094.783157 271.02249 981.461454 271.02249z" />
    <glyph glyph-name="special"
      unicode="&#xF136;"
      horiz-adv-x="1187" d=" M1061.994656 783.22486L559.204009 280.4354000000001L527.551467 123.779888L684.2057920000001 155.287616L1186.995252 658.223077L1061.994656 783.22486z M1055.111243 915.111243V1047H923.2224860000002H0V915.111243V-8.1112430000001V-140H131.888757H1055.111243V-8.1112430000001V343.5921090000001L923.2224860000002 211.703352V-8.1112430000001H131.888757V915.111243H1055.111243z M791.331355 673.3157819999999H263.77514V761.24162H879.257193L791.331355 673.3157819999999z M527.553841 409.539455H263.77514V497.46648H615.4796790000001L527.553841 409.539455z M395.663897 233.6901529999999H263.77514V145.764315H395.663897V233.6901529999999z" />
    <glyph glyph-name="standings"
      unicode="&#xF137;"
      horiz-adv-x="1187" d=" M508.7137770000001 707.857482L254.357482 1047L0 707.857482H169.571259V-140H339.142518V707.857482H508.7137770000001z M932.6425180000002 -140L678.286223 199.142518L847.857482 199.142518L847.857482 1046.999985175557L1017.428741 1047L1017.428741 199.142518L1187 199.142518L932.6425180000002 -140z" />
    <glyph glyph-name="star-fill"
      unicode="&#xF138;"
      horiz-adv-x="1187" d=" M594.60391 1035.13L777.4019099999999 692.96538L1187 638.30403L889.70398 373.08075L960.17617 -3.4950000000001L594.5801700000001 174.6737L226.82383 -3.4950000000001L297.29602 373.08075L0 638.30403L409.60996 692.96538L594.60391 1035.13z" />
    <glyph glyph-name="star"
      unicode="&#xF139;"
      horiz-adv-x="1187" d=" M226.87131 -3.47126L297.31976 373.10449L0 638.30403L409.60996 692.96538L594.60391 1035.13L777.485 692.96538L1187 638.30403L889.68024 373.10449L960.283 -3.47126L594.5683 174.6737L226.87131 -3.47126zM169.95466 586.1353799999999L377.9526700000001 400.6903699999999L326.8404500000001 127.3717499999999L594.78196 257.06337L860.1239400000001 127.81094L809.11855 400.6903699999999L1017.0453400000002 586.1353799999999L729.7913400000001 624.4992199999999L594.2478100000001 878.4222599999999L456.92378 624.40426L169.95466 586.1353799999999z" />
    <glyph glyph-name="stats-wide"
      unicode="&#xF13A;"
      horiz-adv-x="1356.741" d=" M254.357482 1047H1356.571259V877.428741H254.357482V1047z M254.357482 707.857482H1356.571259V538.286223H254.357482V707.8574819999999z M254.357482 368.7137770000001H1356.571259V199.142518H254.357482V368.7137770000001z M254.357482 29.5712589999999H1356.571259V-140H254.357482V29.5712589999999z M0 1047H169.571259V877.428741H0V1047z M0 707.857482H169.571259V538.286223H0V707.8574819999999z M0 368.7137770000001H169.571259V199.142518H0V368.7137770000001z M0 29.5712589999999H169.571259V-140H0V29.5712589999999z" />
    <glyph glyph-name="success-circle"
      unicode="&#xF13B;"
      horiz-adv-x="1187" d=" M0 453.5C0 125.719000975424 265.719000975424 -140 593.5 -140C921.280999024576 -140 1187 125.719000975424 1187 453.5C1187 781.280999024576 921.280999024576 1047 593.5 1047C265.719000975424 1047 0 781.280999024576 0 453.5z M417.0239620000001 256.4069589999999L417.0144660000001 256.39865L521.9322090000001 151.480907L941.59962 571.149505L836.683064 676.066061L521.941705 361.324702L364.5621230000001 518.703097L259.6455670000001 413.786541L417.0239620000001 256.4069589999999z" />
    <glyph glyph-name="success"
      unicode="&#xF13C;"
      horiz-adv-x="1187" d=" M273.94773 194.945286L273.9346730000001 194.9346029999999L456.548688 22.2795180000001L1187 712.897484L1004.388359 885.552569L456.560558 367.600371L182.597397 626.622763L-0.0162285453 453.9688649999999L273.94773 194.945286z" />
    <glyph glyph-name="switch"
      unicode="&#xF13D;"
      horiz-adv-x="1187" d=" M892.8 703H1025.6C940.6 852.5 782.3 953 600.3999999999999 953C357 953 155.1 772.9 116 536.3H0L163.7 286.3L327.4 536.3H227.4C265.1 710.9 418 841.9 600.3 841.9C717.7 841.9 822.3 787.7 892.8 703z M1023.3 619.7L859.5999999999999 369.7000000000001H959.7C921.9 195.1 769 64.1 586.7 64.1C469.4 64.1 364.8000000000001 118.3000000000001 294.3000000000001 203H161.5C246.5 53.5 404.8 -47 586.7 -47C830 -47 1031.9 133.1 1071.1 369.7000000000001H1187.1L1023.3 619.7z" />
    <glyph glyph-name="teams-wide"
      unicode="&#xF13E;"
      horiz-adv-x="2374" d=" M1769.88822 -140H603.456556V-77.9614450000001C603.456556 46.9418169999999 613.210135 118.907253 757.895939 152.8210300000001C921.27818 191.6988409999999 1083.033044 225.612618 1005.000851 371.195794C775.779281 802.155136 939.97343 1047 1187.08309 1047C1429.3023100000003 1047 1598.37859 811.254678 1368.33799 370.3684550000001C1292.74983 225.612618 1448.81659 190.871502 1615.44765 151.993691C1760.1310799999999 118.079914 1769.88822 46.1156649999999 1769.88822 -78.7887840000001C1770.6953800000001 -78.7887840000001 1769.88822 -140 1769.88822 -140z M2173.0527700000002 78.3747639999999C2047.87175 108.1530329999999 1930.8216800000005 133.795794 1987.72646 242.155837C2160.04325 573.027339 2033.2479100000005 750.043462 1851.98114 750.043462C1729.24534 750.043462 1633.3238700000002 668.979671 1633.3238700000002 520.087139C1633.3238700000002 133.795794 1853.60733 344.725694 1851.98114 -140.8309000000001H2289.2838100000004V-95.332003C2289.2838100000004 -1.034349 2281.9718900000003 52.732003 2173.0527700000002 78.3747639999999z M84.8684821 -140H522.177918C519.738633 345.5542199999999 740.831627 134.6231330000001 740.831627 520.915665C740.831627 669.80701 644.917279 750.870801 522.177918 750.870801C340.100427 750.870801 214.109873 573.8546779999999 386.432598 242.983176C443.331443 134.6231330000001 326.28256 108.1542199999999 201.105101 79.202103C92.1840818 52.7331899999999 84.8684821 -1.0331620000002 84.8684821 -94.504664V-140z" />
    <glyph glyph-name="ticket"
      unicode="&#xF13F;"
      horiz-adv-x="1526.1428571428573" d=" M392.1339285714286 665.4642857142857H471.6205357142857V506.4910714285714H392.1339285714286V665.4642857142857z M392.1339285714286 400.5089285714286H471.6205357142857V241.5357142857142H392.1339285714286V400.5089285714286z M100.6830357142857 983.4107142857142C56.7837907857143 983.4107142857142 21.1964285714286 947.8236064285715 21.1964285714286 903.9241071428572V585.9734392857142C21.1964285714286 556.70965 44.9195562142857 532.9866071428571 74.1835998571429 532.9866071428571V532.9866071428571C84.6219082857143 532.9866071428571 94.9583042857143 530.9305535714285 104.6018314285714 526.9362985714286C114.2453585714286 522.9411957142856 123.0079621428572 517.0867421428571 130.3894064285715 509.7052978571428C137.7700028571429 502.3247014285713 143.6253042857143 493.5620978571428 147.6195592857143 483.9185707142857C151.6138142857143 474.2741957142857 153.6698678571429 463.9379692857142 153.6698678571429 453.5C153.6698678571429 443.0620307142857 151.6138142857143 432.7258042857143 147.6195592857143 423.0814292857143C143.6253042857143 413.4379021428571 137.7700028571429 404.6752985714286 130.3894064285715 397.2947021428571C123.0079621428572 389.9132578571428 114.2453585714286 384.0588042857143 104.6018314285714 380.0637014285715C94.9583042857143 376.0694464285714 84.6219082857143 374.0133928571428 74.1835998571429 374.0133928571428V374.0133928571428C44.9195562142857 374.0133928571428 21.1964285714286 350.29035 21.1964285714286 321.0265607142857V3.0758928571429C21.1964285714286 -38.079092857143 52.4743872857143 -71.9340285714286 92.556325 -76.0037428571429C95.2279228571429 -76.2750571428573 97.93937 -76.4107142857144 100.6830357142857 -76.4107142857144H1425.4598214285716C1469.3618642857145 -76.4107142857144 1504.9464285714287 -40.8261500000001 1504.9464285714287 3.0758928571429V903.9241071428572C1504.9464285714287 947.8236064285715 1469.3618642857145 983.4107142857142 1425.4598214285716 983.4107142857142H100.6830357142857zM100.6830357142857 296.7507149999999V3.0758928571429H392.1339285714286V135.5535714285713H471.6205357142857V3.0758928571429H1425.4598214285716V903.9241071428572H471.6205357142857V771.4464285714286H392.1339285714286V903.9241071428572H100.6830357142857V610.249285C112.4360314285714 608.2619078571429 123.9558664285714 604.955265 135.0204021428571 600.3717492857143C154.3074564285715 592.3832392857142 171.8326635714286 580.6734842857143 186.5947042857143 565.9114435714285C201.356745 551.1494028571428 213.0665 533.6241957142857 221.0558578571429 514.3362935714285C229.0452157142857 495.0492392857143 233.1564750000001 474.3767864285713 233.1564750000001 453.5C233.1564750000001 432.6232135714286 229.0452157142857 411.9507607142857 221.0558578571429 392.6637064285714C213.0665 373.3758042857143 201.356745 355.8505971428572 186.5947042857143 341.0885564285714C171.8326635714286 326.3265157142856 154.3074564285715 314.6167607142857 135.0195542857143 306.6282507142857C123.9558664285714 302.044735 112.4360314285714 298.7380921428571 100.6830357142857 296.7507149999999z" />
    <glyph glyph-name="twitter"
      unicode="&#xF140;"
      horiz-adv-x="1187" d=" M373.3589800000001 -28.71875C822.36547 -28.71875 1066.74503 342.1475300000001 1066.74503 664.59608C1066.74503 675.27908 1066.74503 685.89086 1065.78356 695.5767800000001A482.96656 482.96656 0 0 1 1187 821.47C1143.36588 802.09816 1095.8384 789.51596 1047.3494500000002 782.73819A243.97598000000002 243.97598000000002 0 0 1 1154.951 917.32025C1107.471 889.23583 1056.0857700000001 868.95 999.8338400000002 858.267A240.05888000000004 240.05888000000004 0 0 1 822.36547 935.71875C687.56975 935.71875 578.94738 826.3010899999999 578.94738 692.66863A253.44824000000006 253.44824000000006 0 0 1 584.77555 637.47313C383.05677 647.15905 202.68025 743.99451 82.42528 891.17064C61.05928 855.34698 49.46229 813.7070199999999 49.46229 769.1707799999999A241.82751 241.82751 0 0 1 158.07279 566.78728C118.30829 567.76062 80.49047 579.322 47.48 596.80651V593.91023C47.48 475.76812 131.85196 377.97119 243.335 355.7030700000001A232.04663000000005 232.04663000000005 0 0 0 179.32009 346.9904899999999A235.20405 235.20405 0 0 0 133.75116 351.8215800000001C164.77934 254.99799 254.9676000000001 184.31214 361.65516 182.37733C277.35442 116.52257 172.62541 77.79076 58.163 77.79076A391.19958999999994 391.19958999999994 0 0 0 0 81.67225A684.1986699999999 684.1986699999999 0 0 1 373.3589800000001 -28.71875z" />
    <glyph glyph-name="user"
      unicode="&#xF141;"
      horiz-adv-x="1187" d=" M149.562 60.261144C168.622846 73.3881769999999 194.876912 83.652166 231.030558 91.406837C234.1594900000001 92.107167 237.286048 92.803936 240.409045 93.500705C377.136014 123.998296 505.699984 152.675029 441.228079 263.68683C243.395537 608.246816 383.5268220000001 800.104 593.7243430000001 800.104C799.8017870000001 800.104 944.054336 612.1627289999999 746.221794 263.68683C685.3738 151.93078 812.172701 123.617269 949.792294 92.888213C951.998927 92.394421 954.207934 91.9018160000001 956.419315 91.406837C992.5919530000002 83.6474179999999 1018.8543280000002 73.3774939999998 1037.9175480000001 60.240965C929.191909 -62.3464600000002 770.4923830000001 -139.6047290000001 593.74927 -139.6047290000001C416.9954740000001 -139.6047290000001 258.2888260000001 -62.3381509999999 149.562 60.261144z" />
    <glyph glyph-name="video"
      unicode="&#xF142;"
      horiz-adv-x="1187" d=" M593.5 1047C265.7562430000001 1047 0 781.243757 0 453.5C0 125.7562429999999 265.7562430000001 -140 593.5 -140C921.243757 -140 1187 125.7562429999999 1187 453.5C1187 781.243757 921.243757 1047 593.5 1047zM457.654972 207.1975V699.8025L884.2046090000001 453.5L457.654972 207.1975z" />
    <glyph glyph-name="view-history"
      unicode="&#xF143;"
      horiz-adv-x="1187" d=" M258.523852 893.512591C392.473241 979.2468709 572.995762 963.7489241 689.9651160000001 846.7720919999999C694.9932480000001 841.7427729999999 699.774484 836.5496479999999 704.4726300000001 831.273433C716.837609 832.180301 729.366394 832.7571829999999 741.9782690000001 832.7571829999999C772.066345 832.7571829999999 801.576352 830.1196689999999 830.3444840000001 825.17344C811.38572 857.900217 787.974519 888.649452 759.948262 916.678083C603.907616 1072.6472716 361.1494980000001 1088.5574635 187.303852 964.7381699L112.9511216 1039.09566017L60.4428709 776.783011L322.736991 829.212801L258.523852 893.512591z M214.319972 305.166545C214.319972 317.779607 214.896854 330.227676 215.803722 342.675745C210.527507 347.373891 205.334382 352.155127 200.30625 357.1844459999999C132.795625 424.699819 99.0815014 513.318865 99.0815014 602.019814H0C0 488.0927409999999 43.4408764 374.165668 130.405007 287.278455C158.431264 259.249824 189.178125 235.8374360000001 221.902528 216.877485C216.957486 245.482998 214.319972 274.995379 214.319972 305.166545z M741.875 750.3117239999999C496.067479 750.3117239999999 296.75 550.981188 296.75 305.155862C296.75 59.3317229999999 496.067479 -140 741.875 -140C987.682521 -140 1187 59.3317229999999 1187 305.155862C1187 550.981188 987.682521 750.3117239999999 741.875 750.3117239999999zM639.9912290000001 120.4159299999999V489.8957939999999L959.9043470000001 305.155862L639.9912290000001 120.4159299999999z" />
    <glyph glyph-name="volume"
      unicode="&#xF144;"
      horiz-adv-x="1187" d=" M222.5625 676.0625L519.3125 972.8125V-65.8125L222.5625 230.9375H74.1875V676.0625H222.5625z M1112.8125 453.5C1112.8125 166.694834375 880.305165625 -65.8125 593.5 -65.8125V8.375C839.3351187500001 8.375 1038.625 207.6648812499999 1038.625 453.5C1038.625 699.3366025 839.3351187500001 898.625 593.5 898.625V972.8125C880.305165625 972.8125 1112.8125 740.3062784374999 1112.8125 453.5z M964.4375 453.5C964.4375 248.634928125 798.3613625 82.5625 593.5 82.5625V156.75C757.391315625 156.75 890.25 289.6012656249999 890.25 453.5C890.25 617.398734375 757.391315625 750.25 593.5 750.25V824.4375C798.3613625 824.4375 964.4375 658.365071875 964.4375 453.5z M816.0625 453.5C816.0625 330.589859375 716.417559375 230.9375 593.5 230.9375V676.0625C716.417559375 676.0625 816.0625 576.4101406249999 816.0625 453.5z" />
    <glyph glyph-name="warning"
      unicode="&#xF145;"
      horiz-adv-x="1187" d=" M593.5 948.0833729C865.5212290000001 948.0833729 1088.0837290000002 725.521229 1088.0837290000002 453.5C1088.0837290000002 181.478771 865.5212290000001 -41.0837290000002 593.5 -41.0837290000002C321.4787710000001 -41.0837290000002 98.9166271 181.478771 98.9166271 453.5C98.9166271 725.521229 321.4787710000001 948.0833729 593.5 948.0833729zM593.5 1047C265.426257 1047 0 781.5737429999999 0 453.5C0 125.426257 265.426257 -140 593.5 -140C921.573743 -140 1187 125.426257 1187 453.5C1187 781.5737429999999 921.573743 1047 593.5 1047z M586.0812500000001 245.775C608.3375 245.775 623.1750000000001 238.35625 638.0125 223.51875C652.85 208.68125 660.2687500000001 193.84375 660.2687500000001 179.0062499999999C660.2687500000001 156.75 652.85 141.9124999999999 638.0125 134.49375C623.1750000000001 127.0749999999999 608.3375 112.2375 586.0812500000001 112.2375C563.825 112.2375 548.9875000000001 119.65625 534.15 134.49375C519.3125 149.33125 519.3125 156.75 519.3125 179.0062499999999C519.3125 201.2624999999999 526.73125 216.0999999999999 541.56875 223.51875C556.40625 230.9375 571.24375 245.775 586.0812500000001 245.775zM638.0125 312.54375H534.15L519.3125 750.25H652.85L638.0125 312.54375z" />
  </font>
</defs>
</svg>
